使用ffmpeg将mkv格式视频转换为m3u8格式

32人浏览 / 0人评论

概念

FFmpeg是一套可以用来记录、转换数字音频、视频,并能将其转化为流的开源计算机程序。采用LGPL或GPL许可证。它提供了录制、转换以及流化音视频的完整解决方案。它包含了非常先进的音频/视频编解码库libavcodec,为了保证高可移植性和编解码质量,libavcodec里很多code都是从头开发的。

安装FFmpeg

本次操作在Ubuntu 16的64位发布版中完成,所以还需要提前安装。 安装命令如下:

root@ubuntu:~# apt install ffmpeg

验证安装是否成功:

root@ubuntu:~# ffmpeg -version
ffmpeg version 2.8.15-0ubuntu0.16.04.1 Copyright (c) 2000-2018 the FFmpeg developers
built with gcc 5.4.0 (Ubuntu 5.4.0-6ubuntu1~16.04.10) 20160609
configuration: --prefix=/usr --extra-version=0ubuntu0.16.04.1 --build-suffix=-ffmpeg --toolchain=hardened --libdir=/usr/lib/x86_64-linux-gnu --incdir=/usr/include/x86_64-linux-gnu --cc=cc --cxx=g++ --enable-gpl --enable-shared --disable-stripping --disable-decoder=libopenjpeg --disable-decoder=libschroedinger --enable-avresample --enable-avisynth --enable-gnutls --enable-ladspa --enable-libass --enable-libbluray --enable-libbs2b --enable-libcaca --enable-libcdio --enable-libflite --enable-libfontconfig --enable-libfreetype --enable-libfribidi --enable-libgme --enable-libgsm --enable-libmodplug --enable-libmp3lame --enable-libopenjpeg --enable-libopus --enable-libpulse --enable-librtmp --enable-libschroedinger --enable-libshine --enable-libsnappy --enable-libsoxr --enable-libspeex --enable-libssh --enable-libtheora --enable-libtwolame --enable-libvorbis --enable-libvpx --enable-libwavpack --enable-libwebp --enable-libx265 --enable-libxvid --enable-libzvbi --enable-openal --enable-opengl --enable-x11grab --enable-libdc1394 --enable-libiec61883 --enable-libzmq --enable-frei0r --enable-libx264 --enable-libopencv
libavutil      54. 31.100 / 54. 31.100
libavcodec     56. 60.100 / 56. 60.100
libavformat    56. 40.101 / 56. 40.101
libavdevice    56.  4.100 / 56.  4.100
libavfilter     5. 40.101 /  5. 40.101
libavresample   2.  1.  0 /  2.  1.  0
libswscale      3.  1.101 /  3.  1.101
libswresample   1.  2.101 /  1.  2.101
libpostproc    53.  3.100 / 53.  3.100

获取视频资源的编码

root@ubuntu:~/data/新白娘子传奇# ffprobe -of json -show_streams 怀旧剧场新白娘子传奇001.mkv
{
Input #0, matroska,webm, from '怀旧剧场新白娘子传奇001.mkv':
  Metadata:
    encoder         : libebml v0.7.7 + libmatroska v0.8.1
    creation_time   : 2012-10-30 06:53:12
  Duration: 00:50:36.40, start: 0.000000, bitrate: 2193 kb/s
    Stream #0:0: Video: h264 (High), yuv420p, 720x576, SAR 16:15 DAR 4:3, 25 fps, 25 tbr, 1k tbn, 50 tbc (default)
    Stream #0:1: Audio: aac (Main), 44100 Hz, stereo, fltp (default)
    "streams": [
        {
            "index": 0,
            "codec_name": "h264",
            "codec_long_name": "H.264 / AVC / MPEG-4 AVC / MPEG-4 part 10",
            "profile": "High",
            "codec_type": "video",
            "codec_time_base": "1/50",
            "codec_tag_string": "[0][0][0][0]",
            "codec_tag": "0x0000",
            "width": 720,
            "height": 576,
            "coded_width": 720,
            "coded_height": 576,
            "has_b_frames": 0,
            "sample_aspect_ratio": "16:15",
            "display_aspect_ratio": "4:3",
            "pix_fmt": "yuv420p",
            "level": 30,
            "chroma_location": "left",
            "refs": 1,
            "is_avc": "1",
            "nal_length_size": "4",
            "r_frame_rate": "25/1",
            "avg_frame_rate": "25/1",
            "time_base": "1/1000",
            "start_pts": 0,
            "start_time": "0.000000",
            "bits_per_raw_sample": "8",
            "disposition": {
                "default": 1,
                "dub": 0,
                "original": 0,
                "comment": 0,
                "lyrics": 0,
                "karaoke": 0,
                "forced": 0,
                "hearing_impaired": 0,
                "visual_impaired": 0,
                "clean_effects": 0,
                "attached_pic": 0
            }
        },
        {
            "index": 1,
            "codec_name": "aac",
            "codec_long_name": "AAC (Advanced Audio Coding)",
            "profile": "Main",
            "codec_type": "audio",
            "codec_time_base": "1/44100",
            "codec_tag_string": "[0][0][0][0]",
            "codec_tag": "0x0000",
            "sample_fmt": "fltp",
            "sample_rate": "44100",
            "channels": 2,
            "channel_layout": "stereo",
            "bits_per_sample": 0,
            "r_frame_rate": "0/0",
            "avg_frame_rate": "0/0",
            "time_base": "1/1000",
            "start_pts": 0,
            "start_time": "0.000000",
            "disposition": {
                "default": 1,
                "dub": 0,
                "original": 0,
                "comment": 0,
                "lyrics": 0,
                "karaoke": 0,
                "forced": 0,
                "hearing_impaired": 0,
                "visual_impaired": 0,
                "clean_effects": 0,
                "attached_pic": 0
            }
        }
    ]
}

从上面输出的数据可以看出,该视频的编码格式是:h264/acc

实例代码

#!/bin/bash

i=1
TEMP_DIR="%03d"

for _file in *.mkv
do
        _c=$(printf "${TEMP_DIR}" ${i})
        mkdir ${_c}
        
        ffmpeg -i ${_file} -acodec copy -vcodec copy out.mp4
        #ffmpeg -i ${_file} -acodec libfaac -vcodec libx264 out.mp4

        ffmpeg -i out.mp4 -c copy -bsf h264_mp4toannexb out.ts

        ffmpeg -i out.ts -c copy -map 0 -f segment -segment_list ${_c}/playlist.m3u8 -segment_time 1 ${_c}/output%05d.ts

        rm out.mp4
        rm out.ts

        let i+=1;
done

说明:

  • 该代码是将当前目录下的mkv视频全部转换为m3u8视频,并按照一定是顺序存入相应的目录中
  • i=1 该变量主要用于命令m3u8视频存储的目录名的唯一性,后面使用let i+=1来进行自增长
  • TEMP_DIR="%03d" 定义新目录名的格式
  • 使用for...in...do...done循环本路径下所有的mkv视频
  • _c=$(printf "${TEMP_DIR}" ${i}) 使用bash格式化输出构造m3u8视频存储目录名
  • mkdir ${_c} 创建存储目录
  • ffmpeg -i ${_file} -acodec copy -vcodec copy out.mp4 该语句适用于将h264/acc格式的mkv视频转换为mp4格式视频
  • ffmpeg -i ${_file} -acodec libfaac -vcodec libx264 out.mp4 在上述语句无法完成格式转换的时候使用本语句
  • ffmpeg -i out.mp4 -c copy -bsf h264_mp4toannexb out.ts 将Mp4视频转换为一个完整的ts视频
  • ffmpeg -i out.ts -c copy -map 0 -f segment -segment_list ${_c}/playlist.m3u8 -segment_time 1 ${_c}/output%05d.ts 将完整的ts视频进行切片,并生成对应的m3u8文件
  • -segment_list ${_c}/playlist.m3u8 定义m3u8文件的名字和存储路径
  • -segment_time 1 ${_c}/output%05d.ts 定义每个切片的时间长度(单位秒)以及文件名格式
  • rm out.mp4rm out.ts删除中间文件,减少磁盘空间消耗
  • 该代码未对鲁棒性以及更多的兼容性进行考虑,主要针对当前特定视频资源需要。

参看:《ffmpeg_百度百科》

参看:《ffprobe常用命令》

参看:《ffmpeg 视频转ts切片并生成m3u8播放列表文件》

全部评论